Forum |  HardWare.fr | News | Articles | PC | S'identifier | S'inscrire | Shop Recherche
2273 connectés 

  FORUM HardWare.fr
  Windows & Software
  Win 7

  Lecteur Windows Média ne fonctionne plus

 



 Mot :   Pseudo :  
 
Bas de page
Auteur Sujet :

Lecteur Windows Média ne fonctionne plus

n°3218486
naou28
Posté le 21-01-2016 à 12:37:52  profilanswer
 

Bonjour à tous,  
 
Alors mon problème est : quand je veux regarder un film sur mon ordinateur par exemple j'ai le message suivant qui s'affiche quand j'ouvre le fichier avec le lecteur Windows Média : "Le Lecteur Windows Media a rencontré un problème lors de la lecture du fichier." J'ai essayer plusieurs techniques en vain ! J'ai aussi télécharger VLC Média player mais j'ai limage du fichier mais pas le son !  :??:  
Avez-vous des solutions SVP ou connaissez-vous d'autres lecteur de fichiers vidéo, audio... ??  :??:  
 
Merci des réponses  :)    
 
PS je suis sous Windows 7

mood
Publicité
Posté le 21-01-2016 à 12:37:52  profilanswer
 

n°3218499
nex84
Dura lex, sed lex
Posté le 21-01-2016 à 14:00:07  profilanswer
 

D'où viennent les vidéos ?
Quels sont leurs codecs video et audio ?
 
Si VLC ou MPC-HC n'arrivent pas à les lire, c'est que ce sont des vidéos utilisant des codecs exotiques ou que les codecs sont mals installés sur ton PC.


Message édité par nex84 le 21-01-2016 à 14:01:39

---------------
#TeamNoBidouille || Come to the Dark Side, we have cookies || Mangez 5 fruits et légumes par an ! || Le digital, c'est les doigts
n°3218509
Nanaki
Posté le 21-01-2016 à 14:36:29  profilanswer
 

Installe ce petit Satsuki decoder pack qui contient la dernière version de MPC-HC avec juste ce qu'il faut en filtre pour decoder tout ce qu'il faut:
 
http://yatoshi.com/
 
Très régulièrement mise a jour, c'est ce que j'utilise depuis les début de windows XP...

n°3218576
naou28
Posté le 21-01-2016 à 22:10:57  profilanswer
 

Merci des réponses,  
Les vidéos sont des films ou des séries qui viennent de plusieurs sites comme zonetéléchargement, cpasbien, ThePirateBay...
Comment savoir quels sont les codecs vidéo et audio ?
 
PS: J'ai télécharger le Satsuki decoder pack mais j'ai toujours l'image sans son  :??:


Message édité par naou28 le 21-01-2016 à 22:20:46
n°3218581
Nanaki
Posté le 21-01-2016 à 22:40:23  profilanswer
 

Le problème est ailleurs, ce que tu as téléchargé sur différents sites est obligatoirement lisible avec Satsuki et MPC ou Vlc.
 
Sans doute un conflit de codec avec des trucs précédemment installés...
Faudrait désinstaller tout ce qui a un rapport avec l'audio et la video puis réinstaller Satsuki si besoin.
 
PS: MPC peux donner les info d'un media lors de la lecture, clic droit sur l'image et propriété puis mediainfo.


Message édité par Nanaki le 21-01-2016 à 22:40:59
n°3218658
naou28
Posté le 22-01-2016 à 12:47:19  profilanswer
 

ok voila les "infos audio" du média:  
 
Audio
ID  : 1
Format  : MPEG Audio
Format version   : Version 1
Format profile     : Layer 3
Codec ID      : 55
Codec ID/Hint       : MP3
Duration       : 40mn 33s
Bit rate mode       : Constant
Bit rate         : 128 Kbps
Channel(s)         : 2 channels
Sampling rate          : 48.0 KHz
Compression mode       : Lossy
Stream size        : 37.1 MiB (11%)
Alignment           : Aligned on interleaves
Interleave, duration        : 40 ms (1.00 video frame)
Interleave, preload duration   : 504 ms
Writing library         : LAME3.98r
Encoding settings      : -m s -V 4 -q 2 -lowpass 17 -b 128
 
J'y connais pas grand choses :cry:  

n°3218660
nex84
Dura lex, sed lex
Posté le 22-01-2016 à 12:49:49  profilanswer
 

naou28 a écrit :

ok voila les "infos audio" du média:  
 
Audio
ID  : 1
Format  : MPEG Audio
Format version   : Version 1
Format profile     : Layer 3
Codec ID      : 55
Codec ID/Hint       : MP3
Duration       : 40mn 33s
Bit rate mode       : Constant
Bit rate         : 128 Kbps
Channel(s)         : 2 channels
Sampling rate          : 48.0 KHz
Compression mode       : Lossy
Stream size        : 37.1 MiB (11%)
Alignment           : Aligned on interleaves
Interleave, duration        : 40 ms (1.00 video frame)
Interleave, preload duration   : 504 ms
Writing library         : LAME3.98r
Encoding settings      : -m s -V 4 -q 2 -lowpass 17 -b 128
 
J'y connais pas grand choses :cry:  


 
L'audio est en mp3 128kbps.
Rien de spécial a signaler ou d'exotique.


Message édité par nex84 le 22-01-2016 à 12:50:29

---------------
#TeamNoBidouille || Come to the Dark Side, we have cookies || Mangez 5 fruits et légumes par an ! || Le digital, c'est les doigts
n°3218661
naou28
Posté le 22-01-2016 à 12:50:57  profilanswer
 

donc que me conseil-tu ? :??:

n°3218670
Nanaki
Posté le 22-01-2016 à 13:41:21  profilanswer
 

En dehors des video, tu as du son au moins ? :heink:  
Winamp ou ton lecteur audio est capable de lire un mp3 ?
Youtube c'est ok aussi ?


Message édité par Nanaki le 22-01-2016 à 13:41:52
n°3218730
naou28
Posté le 22-01-2016 à 19:23:28  profilanswer
 

Merci pour toutes vos réponses, j'ai juste désinstallé realtek audio... et puis je l'ai réinstaller et tout remarche niquel je peux re-utiliser Windows Média Playrer il y a l'image et le son :) (Oui c'était tout con :lol: )
 
Merci encore des solutions ! :D

mood
Publicité
Posté le 22-01-2016 à 19:23:28  profilanswer
 

n°3218736
Nanaki
Posté le 22-01-2016 à 20:35:47  profilanswer
 

Ha oui donc il n'y avait plus du tout de son, ok ^^


Aller à :
Ajouter une réponse
  FORUM HardWare.fr
  Windows & Software
  Win 7

  Lecteur Windows Média ne fonctionne plus

 

Sujets relatifs
Windows 7CHKDSK de windows 10 bloque à 16%
Réinitialisation Windows 10, incidence sur autres HDD ?pb fermeture windows avec "Task Host Windows"
Installer Mysql 5.7.10 sur Windows Server 2003 x86Windows 10 instable après MAJ depuis Win7
Restauration de fichier avec version de Windows différenteInstaller Windows 7 avec UEFI
[Résolu] Difficultés d'installation windows 10. Help !Message windows kernel processor power
Plus de sujets relatifs à : Lecteur Windows Média ne fonctionne plus


Copyright © 1997-2018 Hardware.fr SARL (Signaler un contenu illicite / Données personnelles) / Groupe LDLC / Shop HFR