Forum |  HardWare.fr | News | Articles | PC | Prix | S'identifier | S'inscrire | Aide | Shop Recherche
384 connectés 

  FORUM HardWare.fr
  Video & Son
  Traitement Audio

  Son d'une vidéo très lent

 



 Mot :   Pseudo :  
 
Bas de page
Auteur Sujet :

Son d'une vidéo très lent

n°2153099
manon666
Carpe Diem
Posté le 08-07-2018 à 00:38:04  profilanswer
 

Bonsoir,
 
J'ai une vidéo d'une très bonne qualité (je pense) dont voici les spécificités vidéo et son :
 

Code :
  1. Video
  2. ID                                       : 1
  3. Format                                   : AVC
  4. Format/Info                              : Advanced Video Codec
  5. Format profile                           : High@L4.1
  6. Format settings                          : CABAC / 3 Ref Frames
  7. Format settings, CABAC                   : Yes
  8. Format settings, ReFrames                : 3 frames
  9. Codec ID                                 : V_MPEG4/ISO/AVC
  10. Duration                                 : 48 min 42 s
  11. Bit rate mode                            : Variable
  12. Bit rate                                 : 17.0 Mb/s
  13. Maximum bit rate                         : 40.0 Mb/s
  14. Width                                    : 1 920 pixels
  15. Height                                   : 1 080 pixels
  16. Display aspect ratio                     : 16:9
  17. Frame rate mode                          : Constant
  18. Frame rate                               : 29.970 (30000/1001) FPS
  19. Color space                              : YUV
  20. Chroma subsampling                       : 4:2:0
  21. Bit depth                                : 8 bits
  22. Scan type                                : MBAFF
  23. Scan type, store method                  : Interleaved fields
  24. Scan order                               : Top Field First
  25. Bits/(Pixel*Frame)                       : 0.274
  26. Stream size                              : 5.78 GiB (88%)
  27. Title                                    : MPEG-4 AVC Video / 17003 kbps / 1080i / 29.970 fps /
  28. Audio
  29. ID                                       : 2
  30. Format                                   : PCM
  31. Format settings                          : Big
  32. Codec ID                                 : A_PCM/INT/BIG
  33. Duration                                 : 48 min 42 s
  34. Bit rate mode                            : Constant
  35. Bit rate                                 : 2 304 kb/s
  36. Sampling rate                            : 48.0 kHz
  37. Frame rate                               : 200.000 FPS (240 SPF)
  38. Bit depth                                : 24 bits
  39. Stream size                              : 803 MiB (12%)
  40. Title                                    : French VOF LPCM 1.0 1152 Kbps
  41. Language                                 : French
  42. Default                                  : No
  43. Forced                                   : No


 
Mais avec tous mes lecteurs Smplayer ou VLC, j'ai une image parfaite, mais le son... très lent et caverneux comme pas possible.
 
À votre avis comment pourrais-je le réencoder.
 
Je possède les logiciels suivant : Avidemux et Handbrake.
 
Merci de votre aide.
 
 :)  :)  :)

mood
Publicité
Posté le 08-07-2018 à 00:38:04  profilanswer
 

n°2153667
proplusor
envie de survoler
Posté le 13-07-2018 à 10:48:34  profilanswer
 

Quelle est l'origine de cette vidéo: votre caméscope ou une œuvre tierce?
 
Lenteur du son ??? il a pourtant la même durée que la vidéo : 48 min 42 s.
que voulez vous dire par: " son très lent" ? Est -il en retard par rapport avec l'image?  
 
L' encodage d'un mauvais fichier ne sera pas meilleur que l'original
VLC est un excellent lecteur.

n°2153724
manon666
Carpe Diem
Posté le 13-07-2018 à 16:58:43  profilanswer
 

Cette vidéo m'a été envoyée par une connaissance.
J'ai malheureusement perdu tout contact avec elle.
J'entends par lenteur l'inaudibilité de celui-ci. On dirait que lorsque le locuteur parle, sa voix vient du tréfond d'une caverne. Très grave et lent.
Si vous me dites que si on ne peut améliorer l'encodage d'origine...
Je peux la jeter alors ?

n°2153810
arnuche
Posté le 14-07-2018 à 10:41:02  profilanswer
 

Tu peux extraire le son et le lire avec VLC ou MPC-HC ?
Faisable facilement avec tsMuxer.

n°2153975
manon666
Carpe Diem
Posté le 16-07-2018 à 01:32:25  profilanswer
 

Je vais essayer avec tsMuxer.
VLC, je n'y pige rien. Trop âgé pour cela.
Je regarderai sur le Net si je vois des tutoriels.
Merci.


Aller à :
Ajouter une réponse
  FORUM HardWare.fr
  Video & Son
  Traitement Audio

  Son d'une vidéo très lent

 

Sujets relatifs
Remplacer automatiquement des courts passages de vidéoProblème de couleurs vidéo 4K
Vegas Pro 15 : problème de "hachage" ou accros dans la vidéops4 et video projecteur
Problème lecteur vidéoFormation courte montage vidéo ou webdesigner
Intégrer une vidéo dans un postChanger la piste audio et de sous-titre par défaut d'une vidéo
Irfanview vidéoAVS Video Converter très lent sur la fin
Plus de sujets relatifs à : Son d'une vidéo très lent


Copyright © 1997-2018 Hardware.fr SARL (Signaler un contenu illicite) / Groupe LDLC / Shop HFR