Forum |  HardWare.fr | News | Articles | PC | S'identifier | S'inscrire | Shop Recherche
1571 connectés 

  FORUM HardWare.fr
  Video & Son
  Traitement Audio

  Soft pour couper un fichier MP3 a partir d'un fichier CUE

 



 Mot :   Pseudo :  
 
Bas de page
Auteur Sujet :

Soft pour couper un fichier MP3 a partir d'un fichier CUE

n°396635
farok
Posté le 12-01-2003 à 10:28:22  profilanswer
 

Voila j'ai un gros fichier MP3 et son fichier .CUE qui ressemble a ca:
PERFORMER "José de Divina"
TITLE "Ibiza World Tour @ Space"
FILE "Ibiza1.mp3" WAVE
  TRACK 01 AUDIO
    TITLE "Introduction By Dj José De Divina / Love & Beats From Ibiza"
    PERFORMER "José de Divina"
    FLAGS DCP
    INDEX 01 00:00:00
  TRACK 02 AUDIO
    TITLE "Alex Palmer Feat. Mass / My Love Is For You (Al Farris And Andrew Wooden Mix)"
    PERFORMER "José de Divina"
    FLAGS DCP
    INDEX 01 00:14:09
  TRACK 03 AUDIO
    TITLE "Dawn Madisn / Time Is Right"
    PERFORMER "José de Divina"
    FLAGS DCP
    INDEX 01 03:44:73
....
 
Je voudrais decouper mon fichier MP3 en utilisant ce fichier CUE.
Connaissez vous un soft pour faire ca ?
Merci !

mood
Publicité
Posté le 12-01-2003 à 10:28:22  profilanswer
 

n°396637
gURuBoOleZ​Z
Posté le 12-01-2003 à 10:37:52  profilanswer
 

mp3cutter
mp3directcut
 
Tous deux disposent du support des fichiers cue. L'un des deux cependant avait quelques problèmes avec les fichiers VBR, qu'il découpait aux mauvais endroits. Peut-être ce bug appartient-il au passé. Quoi qu'il en soit, l'un des deux fonctionne à merveille (je pense que c'est mp3cutter).

n°396831
farok
Posté le 12-01-2003 à 14:42:03  profilanswer
 

merci c'est exactement ce que je cherchais :)
:jap:

n°400608
Sachy
Posté le 17-01-2003 à 20:19:57  profilanswer
 

Salut.
 
Moi j'ai un fichier .wav de 300Mo d'un concert LIVE et j'aimerais le graver sans le couper mais créer le fichier .cue afin de metttre les "signets" qui permettront d'avoir une plage pour chaque chanson...
 
Suis je clair ? :??:
 
En gros je veux faire l'inverse de Farok
 
Merci pour vos réponses !!!

n°400611
gURuBoOleZ​Z
Posté le 17-01-2003 à 20:23:27  profilanswer
 

Tu télécharges EAC, tu le lances, et rippe un CD en sauvegardant le log. Tu dupliques ce dernier, et tu rentres à la main les position.

n°400615
Sachy
Posté le 17-01-2003 à 20:27:12  profilanswer
 

Qu'entends tu par "Tu dupliques ce dernier" et "tu rentres à la main les positions"
 
Par ailleurs, le problème c'est qu'il s'agit là d'un DVD-Rip d'un concert que j'aimerais avoir en CD audio


Message édité par Sachy le 17-01-2003 à 20:27:44
n°400623
gURuBoOleZ​Z
Posté le 17-01-2003 à 20:34:47  profilanswer
 

En fait, un fichier cue est simple fichier txt, qui précise les positions de début et de fin de plage. Tu peux en créer un ex-nihilo, en le tapant intégralement. Le plus simple est d'en générer un, que tu modifieras partiellement (début-fin & chemin). C'est + clair ?

n°400630
Sachy
Posté le 17-01-2003 à 20:45:27  profilanswer
 

Je vois bien...
 
A part ça "ex-nihilo": kézaco ?
 
Je dois faire figurer quoi comme info ?
 
Il doit y avoir des règles a respecter non ?

n°400631
Sachy
Posté le 17-01-2003 à 20:46:15  profilanswer
 

gURuBoOleZZ a écrit :

Le plus simple est d'en générer un, que tu modifieras partiellement (début-fin & chemin). C'est + clair ?


Là, je vois bien.
 
Je vais essayer ça.

n°400640
gURuBoOleZ​Z
Posté le 17-01-2003 à 20:59:19  profilanswer
 

Sachy a écrit :

Je vois bien...
 
A part ça "ex-nihilo": kézaco ?
 
Je dois faire figurer quoi comme info ?
 
Il doit y avoir des règles a respecter non ?

Ex-nihilo : c'est moi qui frime. Cela signifie, à partir de rien.
 
Voici un .cue généré avec EAC (/ACTION / Create Cue Sheet) !  
 

Code :
  1. PERFORMER "Schubert, Franz (1797-1828)"
  2. TITLE "Trio et Sonate (La Gaia Scienza) CD.1"
  3. FILE "D:\01. Trio en mi bémol majeur pour piano, violon et violoncelle op.100 [D929] - 1. Allegro.wav" WAVE
  4.   TRACK 01 AUDIO
  5.     TITLE "Trio en mi bémol majeur pour piano, violon et violoncelle op.100 [D929] - 1. ..."
  6.     PERFORMER "Schubert, Franz (1797-1828)"
  7.     INDEX 01 00:00:00
  8.   TRACK 02 AUDIO
  9.     TITLE "Trio en mi bémol majeur pour piano, violon et violoncelle op.100 [D929] - 2. ..."
  10.     PERFORMER "Schubert, Franz (1797-1828)"
  11.     INDEX 00 15:15:28
  12. FILE "D:\02. Trio en mi bémol majeur pour piano, violon et violoncelle op.100 [D929] - 2. Andante con moto.wav" WAVE
  13.     INDEX 01 00:00:00
  14.   TRACK 03 AUDIO
  15.     TITLE "Trio en mi bémol majeur pour piano, violon et violoncelle op.100 [D929] - 3. ..."
  16.     PERFORMER "Schubert, Franz (1797-1828)"
  17.     INDEX 00 08:38:43
  18. FILE "D:\03. Trio en mi bémol majeur pour piano, violon et violoncelle op.100 [D929] - 3. Scherzando - allegro moderato.wav" WAVE
  19.     INDEX 01 00:00:00
  20.   TRACK 04 AUDIO
  21.     TITLE "Trio en mi bémol majeur pour piano, violon et violoncelle op.100 [D929] - 4. ..."
  22.     PERFORMER "Schubert, Franz (1797-1828)"
  23.     INDEX 00 06:52:73
  24. FILE "D:\04. Trio en mi bémol majeur pour piano, violon et violoncelle op.100 [D929] - 4. Allegro moderato.wav" WAVE
  25.     INDEX 01 00:00:00
  26.   TRACK 05 AUDIO
  27.     TITLE "Sonate en si bémol majeur pour piano, violon et violoncelle D 28"
  28.     PERFORMER "Schubert, Franz (1797-1828)"
  29.     INDEX 00 13:21:38
  30. FILE "D:\05. Sonate en si bémol majeur pour piano, violon et violoncelle D 28.wav" WAVE
  31.     INDEX 01 00:00:00


 
C'est une structure très simple, qui indique :  
1/ le chemin du fichier (D:\nom_fu_fichier.wav)
2/ L'artiste (on s'en fout) & le titre (idem)
3/ La durée de piste (INDEX 00)
4/ La durée du gap (INDEX 01), ici de 0 secondes (pas de trou entre les fichiers)
 
Il suffit de reprendre intégralement ce texte, d'en modifier les données clées (nom de fichier, durée de chaque piste) et de sauvegarder.

mood
Publicité
Posté le 17-01-2003 à 20:59:19  profilanswer
 

n°400768
Sachy
Posté le 18-01-2003 à 00:07:31  profilanswer
 

C'est ce que j'allais te demander:
 

TITLE "3 Gymnopédies - II Lent et triste"
    PERFORMER "Aldo Ciccolini"
    INDEX 00 03:00:47
    INDEX 01 03:03:05

 
 
Par exemple si je ne veux pas de gap, je ne met qu'une fois INDEX et pas deux fois comme là.
 
J'ai bon ?
 
En tout cas merci pour tes précieux conseils

n°400807
Sachy
Posté le 18-01-2003 à 02:10:19  profilanswer
 

J'ai un prob: sur mes 15 pistes, ça me met les 14 premières de 1Mo, et la dernière de 654Mo...
 
Voici mon fichier .cue, qu'ai je fait de mal ?
 
 
 

PERFORMER "The Corrs"
TITLE "The Corrs - Unplugged"
FILE "Unplugged.wav" WAVE
  TRACK 01 AUDIO
    TITLE ""
    PERFORMER "The Corrs"
    INDEX 01 00:00:17
  TRACK 02 AUDIO
    TITLE ""
    PERFORMER "The Corrs"
    INDEX 01 00:04:50
  TRACK 03 AUDIO
    TITLE ""
    PERFORMER "The Corrs"
    INDEX 01 00:09:34
  TRACK 04 AUDIO
    TITLE ""
    PERFORMER "The Corrs"
    INDEX 01 00:14:20
  TRACK 05 AUDIO
    TITLE ""
    PERFORMER "The Corrs"
    INDEX 01 00:17:42
  TRACK 06 AUDIO
    TITLE ""
    PERFORMER "The Corrs"
    INDEX 01 00:23:38
  TRACK 07 AUDIO
    TITLE ""
    PERFORMER "The Corrs"
    INDEX 01 00:27:41
  TRACK 08 AUDIO
    TITLE ""
    PERFORMER "The Corrs"
    INDEX 01 00:32:34
  TRACK 09 AUDIO
    TITLE ""
    PERFORMER "The Corrs"
    INDEX 01 00:38:01
  TRACK 10 AUDIO
    TITLE ""
    PERFORMER "The Corrs"
    INDEX 01 00:42:41
  TRACK 11 AUDIO
    TITLE ""
    PERFORMER "The Corrs"
    INDEX 01 00:47:44
  TRACK 12 AUDIO
    TITLE ""
    PERFORMER "The Corrs"
    INDEX 01 00:52:46
  TRACK 13 AUDIO
    TITLE ""
    PERFORMER "The Corrs"
    INDEX 01 00:57:32
  TRACK 14 AUDIO
    TITLE ""
    PERFORMER "The Corrs"
    INDEX 01 01:01:00
  TRACK 15 AUDIO
    TITLE ""
    PERFORMER "The Corrs"
    INDEX 01 01:05:33
  TRACK 16 AUDIO
    TITLE ""
    PERFORMER "The Corrs"
    INDEX 01 01:10:31

n°400808
-solal-
who the hell are you?
Posté le 18-01-2003 à 02:14:51  profilanswer
 

01:10:31 = 1 min 10s 31 erf cai normal lol...
 
 
donc exemple :
 TRACK 02 AUDIO  
   TITLE ""  
   PERFORMER "The Corrs"  
   INDEX 01 00:04:50
 
modifie le temps en csqce :
 TRACK 02 AUDIO  
   TITLE ""  
   PERFORMER "The Corrs"  
   INDEX 01 04:50:00
 
 :)  

n°400810
Sachy
Posté le 18-01-2003 à 02:31:38  profilanswer
 

:whistle:  
 
Merci ça marche
 
 :jap:

n°414583
Sachy
Posté le 10-02-2003 à 15:40:42  profilanswer
 

J'ai la ligne 111 qui cloche (en gras).
Que dois-je changer ?
-----------------------
 
PERFORMER "xxxxx"
TITLE "xxxxx"
FILE "xxx.wav" WAVE
.........  
TRACK 27 AUDIO
   TITLE ""
   PERFORMER ""
   INDEX 01 104:13:00


Message édité par Sachy le 10-02-2003 à 15:42:42
n°414816
Sachy
Posté le 10-02-2003 à 21:14:41  profilanswer
 

up

n°414839
altus
garder le sang froid
Posté le 10-02-2003 à 21:46:43  profilanswer
 


 
104 minutes ça me semble suspect pour un CD-Audio qui peut faire maxi 80 mn


---------------
Ganz kühl bleiben! JM. | Section Audio
n°415319
Sachy
Posté le 11-02-2003 à 18:26:48  profilanswer
 

Euh ouai mais ya les CD 100mn ;)
 
Je veux juste à partir de mon fichier .wav, et du .cue de découper les pistes avec Exact Audio Copy...
 
Mais même en enlevant la plage "104mn" qui pose problème sous NERO, EAC me dit "invalid .cue"
 
:??:

n°415320
Sachy
Posté le 11-02-2003 à 18:28:05  profilanswer
 

altus a écrit :


 
104 minutes ça me semble suspect pour un CD-Audio qui peut faire maxi 80 mn


 
C'est le rip du son d'un DVD d'un concert de musique. Et il fait 104mn


Message édité par Sachy le 11-02-2003 à 23:01:42
n°415326
altus
garder le sang froid
Posté le 11-02-2003 à 18:35:45  profilanswer
 

D'accord donc ce n'est pas cela l'erreur.
Le .wav est bien accessible ?
Comment est ce que tu sais que l'erreur est à la ligne 111 ?


---------------
Ganz kühl bleiben! JM. | Section Audio
n°415345
Ninipc
Réalisé sans trucage
Posté le 11-02-2003 à 19:02:11  profilanswer
 

vérifie qu'il soit en 44.1 ton truc parce que si c du 48khz ton cd audio est mal barré...

n°415540
Sachy
Posté le 11-02-2003 à 22:59:02  profilanswer
 

J'ai bien converti le fichier .ac3 48khz en .wav 44khz.
 
De plus, le fichier wav est bien accessible aucun problème.
 
Pour le problème ligne 111, c'est NERO qui me le dit lorsque je lance le fichier .cue avec Nero comme pour graver.

n°538375
Sachy
Posté le 12-11-2003 à 21:00:53  profilanswer
 

Dites, me voici de nouveau: qu'est ce qui ne va pas là:
 
PERFORMER "VA"
TITLE "dt2"
FILE "1.mp3" MP3
 
Nero ne me l'accepte pas, erreur ligne 3 :/

mood
Publicité
Posté le   profilanswer
 


Aller à :
Ajouter une réponse
  FORUM HardWare.fr
  Video & Son
  Traitement Audio

  Soft pour couper un fichier MP3 a partir d'un fichier CUE

 

Sujets relatifs
Comment encoder le son d'une video en MP3 ???Comment faire un mgp a partir d'un svcd en .bin ?
Autoradio MP3WMA et MP3
Un pote n'arrive pas a convertir des MP3 avec le soft de son MD !Help: un BON soft pour APE2MP3Lame (--alt-preset)!!!!
Acheter un lecteur Mp3 ?Prbleme de Son avec un fichier .avi ?
[mp3] recherche un soft style "juke box" assez simple 
Plus de sujets relatifs à : Soft pour couper un fichier MP3 a partir d'un fichier CUE


Copyright © 1997-2018 Hardware.fr SARL (Signaler un contenu illicite / Données personnelles) / Groupe LDLC / Shop HFR